The Gigadownload Community

A place to find and share forums, hang out, and have fun.
 
HomeCalendarFAQSearchMemberlistUsergroupsRegisterLog in

Share | 
 

 Paranormal Activity (2009)

Go down 
AuthorMessage
grosikp



Posts : 17
Join date : 2009-10-24

PostSubject: Paranormal Activity (2009)   Sat Oct 31, 2009 4:47 am




INFO:

Complete name : Paranormal Activity DVDSCR XVID
Format : AVI
Format/Info : Audio Video Interleave
File size : 700 MiB
Duration : 1h 37mn
Overall bit rate : 1 007 Kbps
Format settings, QPel, GMC : No No warppoints
Codec ID : XVID
Width : 752 pixels
Height : 432 pixels
Display aspect ratio : 16/9
Frame rate : 29.970 fps
Stream size : 560 MiB (80%)
Codec ID/Hint : MP3
Bit rate mode : Constant
Bit rate : 192 Kbps
Channel(s) : 2 channels
Sampling rate : 44.1 KHz
Stream size : 133 MiB (19%)


DOWNLOAD 100MB PARTS:

Code:

http://rapidshare.com/files/300264324/Paranormal_Activity_2009_www.games-for-gamers.com.part1.rar
http://rapidshare.com/files/300267834/Paranormal_Activity_2009_www.games-for-gamers.com.part2.rar
http://rapidshare.com/files/300272269/Paranormal_Activity_2009_www.games-for-gamers.com.part3.rar
http://rapidshare.com/files/300307609/Paranormal_Activity_2009_www.games-for-gamers.com.part4.rar
http://rapidshare.com/files/300290843/Paranormal_Activity_2009_www.games-for-gamers.com.part5.rar
http://rapidshare.com/files/300261124/Paranormal_Activity_2009_www.games-for-gamers.com.part6.rar
http://rapidshare.com/files/300303943/Paranormal_Activity_2009_www.games-for-gamers.com.part7.rar

NO PASSWORD


SAY THANKS IF YOU LIKE IT!!!
Back to top Go down
View user profile
 
Paranormal Activity (2009)
Back to top 
Page 1 of 1
 Similar topics
-
» Discuss City & Agents 2009
» Pickering Steam Rally 2009
» [PICS] 28.04.2009
» You tube video of Old Warden road run 2009
» WC 2009 Walkthrough

Permissions in this forum:You cannot reply to topics in this forum
The Gigadownload Community :: Listings :: Movies-
Jump to: